きしめん おふろver

きしめん おふろver

現状602.6kbits/s Stream #0.0: Audio: mp3, 44100 Hz, stereo, 96 kb/s Stream #1.0: Video: vp6, yuv420p, 512x384, 30.00 fps(r)

http://www.nicovideo.jp/watch/sm284226

iPhoneで再生出来ない場合はここをタップした後にデスクトップ用サイトを表示

パソコンで再生が出来ない場合はここをクリックした後に[別窓]をクリック